The Incredibles

View previous topic View next topic Go down

The Incredibles

Post  Acid Burn on Tue Dec 01, 2009 9:47 pm

[You must be registered and logged in to see this image.]
[You must be registered and logged in to see this image.]
Mr. Incredible is a superhero; or he used to be, until a surge of lawsuits against superheroes submitted by the people they've saved forced the government to hide them in witness protection programs so they could lead normal, anonymous lives. Now known exclusively by his secret identity, Bob Parr, he lives with his wife Helen, formerly Elastigirl, and their three children Violet, Dash, and Jack Jack. He works as an insurance claims specialist, and he's fed up with his pushy boss and his immoral profession, but his wife's worked too hard to build a normal life for her family to abide his nostalgia for heroism. When Mr. Incredible's offered the chance to play the role of hero again by a mysterious informant, he jumps at the opportunity, but when it turns out to be a trap set by an old nemesis he had a hand in corrupting, the whole family must reveal themselves to save Mr. Incredible and countless innocents.

Format : AVI
Format/Info : Audio Video Interleave
File size : 700 MiB
Duration : 1h 55mn
Overall bit rate : 849 Kbps
Writing application : VirtualDubMod 1.5.4.1 (build 2178/release)
Writing library : VirtualDubMod build 2178/release

Video
ID : 0
Format : MPEG-4 Visual
Format settings, BVOP : Yes
Format settings, QPel : No
Format settings, GMC : No warppoints
Format settings, Matrix : Default (H.263)
Muxing mode : Packed bitstream
Codec ID : DX50
Codec ID/Hint : DivX 5
Duration : 1h 55mn
Bit rate : 714 Kbps
Width : 512 pixels
Height : 208 pixels
Display aspect ratio : 2.462
Frame rate : 23.976 fps
Resolution : 24 bits
Colorimetry : 4:2:0
Scan type : Progressive
Bits/(Pixel*Frame) : 0.280
Stream size : 589 MiB (84%)
Writing library : DivX 5.2.1 (DrDivX 106) (UTC 2004-09-08)

Audio
ID : 1
Format : MPEG Audio
Format version : Version 1
Format profile : Layer 3
Codec ID : 55
Codec ID/Hint : MP3
Duration : 1h 55mn
Bit rate mode : Constant
Bit rate : 128 Kbps
Channel(s) : 2 channels
Sampling rate : 48.0 KHz
Resolution : 16 bits
Stream size : 106 MiB (15%)
Alignment : Aligned on interleaves
Interleave, duration : 83 ms (2.00 video frames)
Interleave, preload duration : 504 ms

[You must be registered and logged in to see this image.]
Code:
http://rapidshare.com/files/286014662/Incredibles.SF.org.part1.rar
http://rapidshare.com/files/286022970/Incredibles.SF.org.part2.rar
http://rapidshare.com/files/286030917/Incredibles.SF.org.part3.rar
http://rapidshare.com/files/286039423/Incredibles.SF.org.part4.rar
http://rapidshare.com/files/286049082/Incredibles.SF.org.part5.rar
http://rapidshare.com/files/286058459/Incredibles.SF.org.part6.rar
http://rapidshare.com/files/286068370/Incredibles.SF.org.part7.rar
http://rapidshare.com/files/286070663/Incredibles.SF.org.part8.rar

[You must be registered and logged in to see this image.]
Code:
SerbianForum.org
avatar
Acid Burn
Forum Manager
Forum Manager

Posts : 140
Join date : 2009-11-08
Age : 26
Location : Serbia

View user profile http://epicanime.top-board.com

Back to top Go down

View previous topic View next topic Back to top


 
Permissions in this forum:
You cannot reply to topics in this forum